Dong Yi (2010) (Abheetha Diyaniya) Complete Sinhala Dubbed WEBRip 1080p

Dong Yi (2010)

60 min | Adventure, Drama, History | March 22, 2010 (South Korea)
8.1Rating: 8.1 / 10 from 2,010 usersMetascore: N/A
Story a simple maid that rises high in the royal harem as a consort and, ultimately, mother of the Korean king.
Title ...............: Dong.Yi.1080p.WEBRip.2CH.x264-DubHubLK
Format ..............: .mkv
Files ...............: 60
Size ................: 115 GB
Codec ...............: AVC x264
Resolution ..........: 1920x1080
Audio ...............: 2CH 192k AAC Sinhala
Runtime..............: 1h 5min
Trailer..............: Watch
Sample...............: Watch

Screenshots

Dong-Yi-Abheetha-Diyaniya-1
Dong-Yi-Abheetha-Diyaniya-2
Dong-Yi-Abheetha-Diyaniya-3
Dong-Yi-Abheetha-Diyaniya-4
Dong-Yi-Abheetha-Diyaniya-5
Dong-Yi-Abheetha-Diyaniya-6
Dong-Yi-Abheetha-Diyaniya-7
Dong-Yi-Abheetha-Diyaniya-8
Dong-Yi-Abheetha-Diyaniya-9
Dong-Yi-Abheetha-Diyaniya-10
Dong-Yi-Abheetha-Diyaniya-11
Dong-Yi-Abheetha-Diyaniya-12
Dong-Yi-Abheetha-Diyaniya-13
Dong-Yi-Abheetha-Diyaniya-14
Dong-Yi-Abheetha-Diyaniya-15
Dong-Yi-Abheetha-Diyaniya-16
Dong-Yi-Abheetha-Diyaniya-17
Dong-Yi-Abheetha-Diyaniya-18
Dong-Yi-Abheetha-Diyaniya-19
Dong-Yi-Abheetha-Diyaniya-20

Mediainfo

Complete name : Dong.Yi.E05.1080p.WEBRip.2CH.x264-DubHubLK.mkv
Format : Matroska
Format version : Version 4
File size : 1.81 GiB
Duration : 1 h 3 min
Overall bit rate : 4 072 kb/s
Frame rate : 30.000 FPS
Encoded date : 2024-01-06 05:02:37 UTC
Writing application : mkvmerge v81.0 (‘Milliontown’) 64-bit
Writing library : libebml v1.4.4 + libmatroska v1.7.1

Video
ID : 1
Format : AVC
Format/Info : Advanced Video Codec
Format profile : High@L4
Format settings : CABAC / 4 Ref Frames
Format settings, CABAC : Yes
Format settings, Reference : 4 frames
Codec ID : V_MPEG4/ISO/AVC
Duration : 1 h 3 min
Bit rate : 3 900 kb/s
Width : 1 920 pixels
Height : 1 080 pixels
Display aspect ratio : 16:9
Frame rate mode : Constant
Frame rate : 30.000 FPS
Color space : YUV
Chroma subsampling : 4:2:0
Bit depth : 8 bits
Scan type : Progressive
Bits/(Pixel*Frame) : 0.063
Stream size : 1.73 GiB (95%)
Writing library : x264 core 148

Audio
ID : 2
Format : AAC LC
Format/Info : Advanced Audio Codec Low Complexity
Codec ID : A_AAC-2
Duration : 1 h 3 min
Bit rate : 192 kb/s
Channel(s) : 2 channels
Channel layout : L R
Sampling rate : 48.0 kHz
Frame rate : 46.875 FPS (1024 SPF)
Compression mode : Lossy
Delay relative to video : -67 ms
Stream size : 86.3 MiB (5%)
Language : Sinhala
Default : Yes
Forced : No